【88必发】游戏大厅|88必发娱乐城|88必发娱乐官网

 找回密码

88必发中国论坛

查看: 459721|回复: 32311
打印 上一主题 下一主题

[88必发电影] 全球首部88必发电影(TimeScapes时间的风景)画面美得让人窒息H265编码版/1.8G

  [复制链接]
跳转到指定楼层
1楼(楼主)
发表于 2014-8-12 02:04:26 | 只看该作者 回帖奖励 |倒序浏览 |阅读模式
全球首部88必发电影(TimeScapes时间的风景)画面美得让人窒息H265编码版/1.8G
全球首部88必发电影(TimeScapes时间的风景)画面美得让人窒息H265编码版/1.8G
全球首部88必发电影(TimeScapes时间的风景)画面美得让人窒息H265编码版/1.8G
全球首部88必发电影(TimeScapes时间的风景)画面美得让人窒息H265编码版/1.8G
全球首部88必发电影(TimeScapes时间的风景)画面美得让人窒息H265编码版/1.8G

感受H265编码的魅力,时间的风景TimeScapes.2012[2160P/MKV/1.84G]

General
Complete name                  : D:\88必发123.com\88必发风光6声道H265时间的风景2012.mkv
Format                         : Matroska
Format version                 : Version 1
File size                      : 1.84 GiB
Duration                       : 48mn 21s
Overall bit rate               : 5 450 Kbps
Writing application            : DivXMKVMux 9.8.11.3853
Writing library                : libDivXMediaFormat 4.0.0.0578

Video
ID                             : 1
Format                         : HEVC
Format/Info                    : High Efficiency Video Coding
Codec ID                       : V_MPEGH/ISO/HEVC
Duration                       : 48mn 21s
Bit rate                       : 4 702 Kbps
Width                          : 3 840 pixels
Height                         : 2 160 pixels
Display aspect ratio           : 16:9
Frame rate mode                : Constant
Frame rate                     : 23.976 fps
Bits/(Pixel*Frame)             : 0.024
Stream size                    : 1.59 GiB (86%)
Language                       : English
Default                        : Yes
Forced                         : No

Audio
ID                             : 2
Format                         : AC-3
Format/Info                    : Audio Coding 3
Mode extension                 : CM (complete main)
Format settings, Endianness    : Big
Codec ID                       : A_AC3
Duration                       : 48mn 21s
Bit rate mode                  : Constant
Bit rate                       : 640 Kbps
Channel(s)                     : 6 channels
Channel positions              : Front: L C R, Side: L R, LFE
Sampling rate                  : 48.0 KHz
Bit depth                      : 16 bits
Compression mode               : Lossy
Stream size                    : 221 MiB (12%)
Language                       : English
Default                        : Yes
Forced                         : No


其他版本:《时间的风景307无损版》《时间的风景28G版

【全球首部88必发电影时光风景】时长约48分钟。大小约2G

这次作为全球首部88必发电影,其镜头画面简直美得让人窒息。H.265版本,超小的容量体积(你值得拥有!)

来感受H265编码的魅力。喜欢的就体验一下吧。

百度盘:感谢:@刘302
游客,如果您要查看本帖隐藏内容请回复


回复

使用道具 举报

2楼(沙发)
 楼主| 发表于 2014-8-12 02:05:54 | 只看该作者
   神奇的H.265编码:一个原本27.8G的文档经过它重新编码后缩小到了1.84G,只有原来的6.7%,码率则从83Mbps降低到了5.5Mbps,令人称奇的是图像质量丝毫不减!这项编码标准的出现,让视频网站如虎添翼,使得在同等的网络带宽条件下能提供更高清晰度的影视作品,这样的性能提高是以极其复杂的算法为代价,而它的出现为网络传输88必发视频铺平了道路。

注:以上数据因画面内容不同而有所差异,本文提供的原始文档分辨率是4096*2304,H.265编码后的文档分辨率是3840*2160

以下是原始文档和经过H.265编码后的文档的截图对比,从中可以看出惊人的高质量,每组截图在两个文档的相同时间点截取,以方便对比。

原文档截图链接:/thread-2604-1-1.html

点评

星空及暗部马赛克严重,暗部细节缺失,涂抹感严重,与原片画质相差甚远,根本达不到88必发级的效果,甚至跟h.264编码2K的比都不如,很失望!  发表于 2014-11-10 12:59
回复 支持 1 反对 4

使用道具 举报

3楼(板凳)
发表于 2014-8-12 02:10:12 | 只看该作者
美景!!感谢分享

点评

timescapes 迅雷下载  发表于 2017-7-11 14:25
回复 支持 2 反对 0

使用道具 举报

4楼(地板)
发表于 2014-8-12 02:10:40 | 只看该作者
看看H265的效果如何
回复 支持 1 反对 0

使用道具 举报

5楼
发表于 2014-8-12 02:27:22 | 只看该作者
谢谢楼主分享
回复 支持 反对

使用道具 举报

6楼
发表于 2014-8-12 02:43:11 | 只看该作者
好 我喜欢~~ 试试H265效果
回复 支持 反对

使用道具 举报

7楼
发表于 2014-8-12 02:59:55 | 只看该作者
美景感谢分享.............全球首部88必发电影(TimeScapes时间的风景)画面美得让人窒息H265编码版/1.8G
回复 支持 反对

使用道具 举报

8楼
发表于 2014-8-12 03:07:23 | 只看该作者
307G太大了,试试这个吧
回复 支持 反对

使用道具 举报

9楼
发表于 2014-8-12 04:13:37 | 只看该作者
神奇的H.265编码:一个原本27.8G的文档经过它重新编码后缩小到了1.84G全球首部88必发电影(TimeScapes时间的风景)画面美得让人窒息H265编码版/1.8G
回复 支持 0 反对 1

使用道具 举报

10楼
发表于 2014-8-12 04:14:53 | 只看该作者
全球首部88必发电影。感谢分享
回复 支持 反对

使用道具 举报

您需要登录后才可以回帖 登录 | 注册

本版积分规则

手机版|88必发知识百科|小黑屋|标签|Sitemap|联系我们|Archiver| 88必发中国论坛  

Copyright © 2013-2017 88必发娱乐官网   All Rights Reserved.

Powered by Discuz! X3.1

快速回复 返回顶部 返回列表