【88必发】游戏大厅|88必发娱乐城|88必发娱乐官网

 找回密码
 注册

QQ登录

只需一步,快速开始

[88必发足球赛]2017年欧洲超级杯(皇家马德里 VS 曼联)(2017-08-08)[2160P/MKV/22.2GB]

1697
回复
18516
查看
打印 上一主题 下一主题
[复制链接]
[88必发足球赛]2017年欧洲超级杯(皇家马德里 VS 曼联)(2017-08-08)[2160P/MKV/22.2GB]
(2小时4分钟全场比赛+颁奖仪式)
[88必发足球赛]2017年欧洲超级杯(皇家马德里 VS 曼联)(2017-08-08)[2160P/MKV/22.2GB]
General
Unique ID : 195712052438260441729891066607473234844 (0x933CC52D95F28BB3A2958DF1630B939C)
Complete name : RMA-MU.2160p.08.08.2017-Nikolay_-_-.mkv
Format : Matroska
Format version : Version 4 / Version 2
File size : 22.2 GiB
Duration : 2 h 4 min
Overall bit rate : 25.5 Mbps
Encoded date : UTC 2017-08-08 21:02:00
Writing application : mkvmerge v8.3.0 ('Over the Horizon') 64bit
Writing library : libebml v1.3.1 + libmatroska v1.4.2

Video
ID : 1
Format : HEVC
Format/Info : High Efficiency Video Coding
Format profile : Main 10@L5.1@Main
Codec ID : V_MPEGH/ISO/HEVC
Duration : 2 h 4 min
Bit rate : 25.2 Mbps
Width : 3840 pixels
Height : 2160 pixels
Display aspect ratio : 16:9
Frame rate mode : Constant
Frame rate : 50.000 FPS
Color space : YUV
Chroma subsampling : 4:2:0
Bit depth : 10 bits
Bits/(Pixel*Frame) : 0.061
Stream size : 21.9 GiB (99%)
Default : Yes
Forced : No

Audio
ID : 2
Format : E-AC-3
Format/Info : Enhanced Audio Coding 3
Format settings, Endianness : Big
Codec ID : A_EAC3
Duration : 2 h 4 min
Bit rate mode : Constant
Bit rate : 256 kbps
Channel(s) : 6 channels
Channel positions : Front: L C R, Side: L R, LFE
Sampling rate : 48.0 kHz
Frame rate : 187.500 FPS (256 SPF)
Compression mode : Lossy
Delay relative to video : -520 ms
Stream size : 228 MiB (1%)
Service kind : Complete Main
Default : Yes
Forced : No
[88必发足球赛]2017年欧洲超级杯(皇家马德里 VS 曼联)(2017-08-08)[2160P/MKV/22.2GB] [88必发足球赛]2017年欧洲超级杯(皇家马德里 VS 曼联)(2017-08-08)[2160P/MKV/22.2GB] [88必发足球赛]2017年欧洲超级杯(皇家马德里 VS 曼联)(2017-08-08)[2160P/MKV/22.2GB] [88必发足球赛]2017年欧洲超级杯(皇家马德里 VS 曼联)(2017-08-08)[2160P/MKV/22.2GB] [88必发足球赛]2017年欧洲超级杯(皇家马德里 VS 曼联)(2017-08-08)[2160P/MKV/22.2GB] [88必发足球赛]2017年欧洲超级杯(皇家马德里 VS 曼联)(2017-08-08)[2160P/MKV/22.2GB] [88必发足球赛]2017年欧洲超级杯(皇家马德里 VS 曼联)(2017-08-08)[2160P/MKV/22.2GB] [88必发足球赛]2017年欧洲超级杯(皇家马德里 VS 曼联)(2017-08-08)[2160P/MKV/22.2GB] [88必发足球赛]2017年欧洲超级杯(皇家马德里 VS 曼联)(2017-08-08)[2160P/MKV/22.2GB] [88必发足球赛]2017年欧洲超级杯(皇家马德里 VS 曼联)(2017-08-08)[2160P/MKV/22.2GB] [88必发足球赛]2017年欧洲超级杯(皇家马德里 VS 曼联)(2017-08-08)[2160P/MKV/22.2GB] [88必发足球赛]2017年欧洲超级杯(皇家马德里 VS 曼联)(2017-08-08)[2160P/MKV/22.2GB] [88必发足球赛]2017年欧洲超级杯(皇家马德里 VS 曼联)(2017-08-08)[2160P/MKV/22.2GB] [88必发足球赛]2017年欧洲超级杯(皇家马德里 VS 曼联)(2017-08-08)[2160P/MKV/22.2GB] [88必发足球赛]2017年欧洲超级杯(皇家马德里 VS 曼联)(2017-08-08)[2160P/MKV/22.2GB] [88必发足球赛]2017年欧洲超级杯(皇家马德里 VS 曼联)(2017-08-08)[2160P/MKV/22.2GB] [88必发足球赛]2017年欧洲超级杯(皇家马德里 VS 曼联)(2017-08-08)[2160P/MKV/22.2GB] [88必发足球赛]2017年欧洲超级杯(皇家马德里 VS 曼联)(2017-08-08)[2160P/MKV/22.2GB] [88必发足球赛]2017年欧洲超级杯(皇家马德里 VS 曼联)(2017-08-08)[2160P/MKV/22.2GB] [88必发足球赛]2017年欧洲超级杯(皇家马德里 VS 曼联)(2017-08-08)[2160P/MKV/22.2GB] [88必发足球赛]2017年欧洲超级杯(皇家马德里 VS 曼联)(2017-08-08)[2160P/MKV/22.2GB] [88必发足球赛]2017年欧洲超级杯(皇家马德里 VS 曼联)(2017-08-08)[2160P/MKV/22.2GB] [88必发足球赛]2017年欧洲超级杯(皇家马德里 VS 曼联)(2017-08-08)[2160P/MKV/22.2GB] [88必发足球赛]2017年欧洲超级杯(皇家马德里 VS 曼联)(2017-08-08)[2160P/MKV/22.2GB] [88必发足球赛]2017年欧洲超级杯(皇家马德里 VS 曼联)(2017-08-08)[2160P/MKV/22.2GB] [88必发足球赛]2017年欧洲超级杯(皇家马德里 VS 曼联)(2017-08-08)[2160P/MKV/22.2GB] [88必发足球赛]2017年欧洲超级杯(皇家马德里 VS 曼联)(2017-08-08)[2160P/MKV/22.2GB] [88必发足球赛]2017年欧洲超级杯(皇家马德里 VS 曼联)(2017-08-08)[2160P/MKV/22.2GB] [88必发足球赛]2017年欧洲超级杯(皇家马德里 VS 曼联)(2017-08-08)[2160P/MKV/22.2GB]
建议使用极速迅雷来高速下载!
播放器: Potplaye/MPC-HC/影音先锋

BT种子文件下载
游客,如果您要查看本帖隐藏内容请回复

分享到:  QQ好友和群QQ好友和群
收藏
收藏9
转播
转播
分享
分享
分享
淘帖0
赞
0
踩
0
回复

使用道具 举报

2楼(沙发)#
2017-8-11 15:38:57 只看该作者
我家88必发电视又可以炫机了
回复 支持 反对

使用道具 举报

3楼(板凳)#
2017-8-11 15:45:31 只看该作者
又是涨姿势了
回复 支持 反对

使用道具 举报

4楼(地板)#
2017-8-11 15:45:33 只看该作者
谢谢楼主分享
回复 支持 反对

使用道具 举报

5楼#
2017-8-11 15:52:23 只看该作者
又是涨姿势了
回复 支持 反对

使用道具 举报

6楼#
2017-8-11 15:58:31 只看该作者
支持楼主,88必发123有你更精彩!
回复 支持 反对

使用道具 举报

7楼#
2017-8-11 16:02:00 只看该作者
真是难得给力的资源啊。
回复 支持 反对

使用道具 举报

8楼#
2017-8-11 16:09:21 只看该作者
看看 喜欢看足球 有福了
回复 支持 反对

使用道具 举报

9楼#
2017-8-11 16:18:20 只看该作者
感谢楼主分享
回复 支持 反对

使用道具 举报

10楼#
2017-8-11 16:22:38 只看该作者
支持楼主,88必发123有你更精彩!
回复 支持 反对

使用道具 举报

您需要登录后才可以回帖 登录 | 注册