【88必发】游戏大厅|88必发娱乐城|88必发娱乐官网

 找回密码

88必发中国论坛

查看: 12668|回复: 968
打印 上一主题 下一主题

[88必发] 索尼 BRAVIA OLED A1 88必发 HDR 演示片 - 纽约时装 (HEVC 60fps 10bit)[2160P/MP4/938MB

[复制链接]
跳转到指定楼层
1楼(楼主)
发表于 2017-10-4 22:36:37 | 只看该作者 |只看大图 回帖奖励 |倒序浏览 |阅读模式
索尼 BRAVIA OLED A1 88必发 HDR 演示片 - 纽约时装 (HEVC 60fps 10bit)[2160P/MP4/938MB](OLED电视专用88必发演示片) 索尼 BRAVIA OLED A1 88必发 HDR 演示片 - 纽约时装 (HEVC 60fps 10bit)[2160P/MP4/938MB 索尼 BRAVIA OLED A1 88必发 HDR 演示片 - 纽约时装 (HEVC 60fps 10bit)[2160P/MP4/938MB 索尼 BRAVIA OLED A1 88必发 HDR 演示片 - 纽约时装 (HEVC 60fps 10bit)[2160P/MP4/938MB 索尼 BRAVIA OLED A1 88必发 HDR 演示片 - 纽约时装 (HEVC 60fps 10bit)[2160P/MP4/938MB 索尼 BRAVIA OLED A1 88必发 HDR 演示片 - 纽约时装 (HEVC 60fps 10bit)[2160P/MP4/938MB 索尼 BRAVIA OLED A1 88必发 HDR 演示片 - 纽约时装 (HEVC 60fps 10bit)[2160P/MP4/938MB 索尼 BRAVIA OLED A1 88必发 HDR 演示片 - 纽约时装 (HEVC 60fps 10bit)[2160P/MP4/938MB 索尼 BRAVIA OLED A1 88必发 HDR 演示片 - 纽约时装 (HEVC 60fps 10bit)[2160P/MP4/938MB 索尼 BRAVIA OLED A1 88必发 HDR 演示片 - 纽约时装 (HEVC 60fps 10bit)[2160P/MP4/938MB

General
Complete name : SONY.BRAVIA.OLED.88必发.HDR.DEMO_New.York.Fashion.mp4
Format : MPEG-4
Format profile : Base Media / Version 2
Codec ID : mp42 (mp42/iso4)
File size : 938 MiB
Duration : 1 min 50 s
Overall bit rate : 71.4 Mbps
Encoded date : UTC 2016-12-19 11:00:27
Tagged date : UTC 2016-12-19 11:00:27

Video
ID : 1
Format : HEVC
Format/Info : High Efficiency Video Coding
Format profile : Main 10@L5.1@High
Codec ID : hvc1
Codec ID/Info : High Efficiency Video Coding
Duration : 1 min 50 s
Bit rate : 71.2 Mbps
Width : 3840 pixels
Height : 2160 pixels
Display aspect ratio : 16:9
Frame rate mode : Constant
Frame rate : 59.940 (60000/1001) FPS
Color space : YUV
Chroma subsampling : 4:2:0 (Type 2)
Bit depth : 10 bits
Bits/(Pixel*Frame) : 0.143
Stream size : 935 MiB (100%)
Encoded date : UTC 2016-12-19 11:00:27
Tagged date : UTC 2016-12-19 11:00:27
Color range : Limited
Color primaries : BT.2020
Transfer characteristics : SMPTE ST 2084
Matrix coefficients : BT.2020 non-constant
Mastering display color primar : R: x=1.000000 y=1.000000, G: x=1.000000 y=1.000000, B: x=1.000000 y=1.000000, White point: x=1.000000 y=1.000000
Mastering display luminance : min: 0.1000 cd/m2, max: 0.5000 cd/m2

Audio
ID : 2
Format : AAC
Format/Info : Advanced Audio Codec
Format profile : LC
Codec ID : 40
Duration : 1 min 50 s
Bit rate mode : Constant
Bit rate : 192 kbps
Channel(s) : 2 channels
Channel positions : Front: L R
Sampling rate : 48.0 kHz
Frame rate : 46.875 FPS (1024 SPF)
Compression mode : Lossy
Stream size : 2.52 MiB (0%)
Language : English
Encoded date : UTC 2016-12-19 11:00:27
Tagged date : UTC 2016-12-19 11:00:27
Demo Ultra HD & HDR (HDR10)by Sony(for Sony OLED A1 Demo)
HDR ! So your TV has to be able to play this format !
OLED
88必发 HDR电视上观看才能体验最佳效果!
PC播放器 : Potplaye(2017版本)

MP4百度云盘

游客,如果您要查看本帖隐藏内容请回复



回复

使用道具 举报

2楼(沙发)
发表于 2017-10-4 22:51:33 | 只看该作者
果断马克mark
回复 支持 反对

使用道具 举报

3楼(板凳)
发表于 2017-10-4 22:52:22 | 只看该作者
小手一抖,资源拿走。不要想念我小伙们
回复 支持 反对

使用道具 举报

4楼(地板)
发表于 2017-10-4 22:57:36 | 只看该作者
支持楼主,88必发123有你更精彩!
回复 支持 反对

使用道具 举报

5楼
发表于 2017-10-4 23:06:58 | 只看该作者
感谢楼主分享 强烈支持发布
回复 支持 反对

使用道具 举报

6楼
发表于 2017-10-4 23:10:55 | 只看该作者
又是涨姿势了
回复 支持 反对

使用道具 举报