【88必发】游戏大厅|88必发娱乐城|88必发娱乐官网

 找回密码

88必发中国论坛

查看: 3633|回复: 423
打印 上一主题 下一主题

[88必发] 视觉冲击:飞利浦Philips OLED 88必发视频演示片黑场景纯粹![60fps/10bits]

[复制链接]
跳转到指定楼层
1楼(楼主)
发表于 2017-12-5 21:19:03 | 只看该作者 |只看大图 回帖奖励 |倒序浏览 |阅读模式
视觉冲击:飞利浦Philips OLED 88必发视频演示片黑场景纯粹![60fps/10bits]
视觉冲击:飞利浦Philips OLED 88必发视频演示片黑场景纯粹![60fps/10bits]
视觉冲击:飞利浦Philips OLED 88必发视频演示片黑场景纯粹![60fps/10bits]
视觉冲击:飞利浦Philips OLED 88必发视频演示片黑场景纯粹![60fps/10bits]
视觉冲击:飞利浦Philips OLED 88必发视频演示片黑场景纯粹![60fps/10bits]
视觉冲击:飞利浦Philips OLED 88必发视频演示片黑场景纯粹![60fps/10bits]

OLED 88必发视频信息:

Complete name          : G:\OLED\Philips_OLED_PQ_HEVC_60p_40Mbps_SDR_BlackEnhanced.mp4
Format                         : MPEG-4
Codec ID                      : mp42 (isom/mp42)
File size                         : 481 MiB
Overall bit rate            : 38.8 Mbps
Format                          : HEVC
Bit rate                          : 38.6 Mbps
Width                            : 3 840 pixels
Height                           : 2 160 pixels
Frame rate                     : 60.000 fps
Color space                   : YUV
Chroma subsampling   : 4:2:0
Bit depth                        : 10 bits
Stream size                    : 479 MiB (99%)

Audio
Format                          : AAC
Duration                       : 1mn 44s
Bit rate mode              : Variable
Bit rate                          : 192 Kbps
Maximum bit rate       : 360 Kbps
Channel(s)                     : 2 channels
Channel positions        : Front: L R
Sampling rate              : 48.0 KHz
Frame rate                    : 46.875 fps (1024 spf)
Stream size                   : 2.35 MiB (0%)

飞利浦Philips OLED 88必发演示片,OLED专属的演示片,使用OLED电视观看视觉冲击力特别突出!


百度网盘下载:
游客,如果您要查看本帖隐藏内容请回复

回复

使用道具 举报

2楼(沙发)
发表于 2017-12-5 21:21:03 | 只看该作者
小手一抖,资源拿走。不要想念我小伙们
回复 支持 反对

使用道具 举报

3楼(板凳)
发表于 2017-12-5 21:28:17 | 只看该作者
6666666666666666666666666
回复 支持 反对

使用道具 举报

4楼(地板)
发表于 2017-12-5 21:38:16 | 只看该作者
支持楼主,88必发123有你更精彩!
回复 支持 反对

使用道具 举报

5楼
发表于 2017-12-5 21:59:58 | 只看该作者
RE: 视觉冲击:飞利浦Philips OLED 88必发视频演示片黑场景纯粹![60fps/10bits] [修改]
回复 支持 反对

使用道具 举报

6楼
发表于 2017-12-5 22:06:49 | 只看该作者
谢谢楼主分享
回复 支持 反对

使用道具 举报

7楼
发表于 2017-12-5 22:15:58 | 只看该作者
小手一抖,资源拿走。不要想念我小伙们
回复 支持 反对

使用道具 举报

8楼
发表于 2017-12-5 22:22:20 | 只看该作者
又是涨姿势了
回复 支持 反对

使用道具 举报

9楼
发表于 2017-12-5 22:35:13 | 只看该作者
哈哈哈哈 好东西
回复 支持 反对

使用道具 举报

10楼
发表于 2017-12-5 22:47:07 | 只看该作者
支持楼主,88必发123有你更精彩!
回复 支持 反对

使用道具 举报

您需要登录后才可以回帖 登录 | 注册

本版积分规则

手机版|88必发知识百科|小黑屋|标签|Sitemap|联系我们|Archiver| 88必发中国论坛  

Copyright © 2013-2017 88必发娱乐官网   All Rights Reserved.

Powered by Discuz! X3.1